1. BONUS SYSTEM: USE OUR BONUS SYSTEM TO BUY UPLOAD CREDIT. SEED YOUR TORRENTS AS LONG AS POSSIBLE AND GET BONUS POINTS

    Dismiss Notice
  2. REFERAL CONTEST: USE OUR REFERAL SYSTEM Refer and win Bonus points and get upload credit. 1. Get 500 Bonus point and get 2 GB upload credit. 2. Get 250 Bonus point and get 1 GB upload credit. 3. Get 100 Bonus point and get 500 mb upload credit.

    Dismiss Notice

M.s. Dhoni The Untold Story (2016) Tamil Br-rip - 1080p - X264 - Dd5.1 (640kbps - 6ch) - 3.9gb - Esu

Discussion in 'BD/BR Rip' started by Abhijith DRG, Dec 28, 2016.

  1. Abhijith DRG

    Abhijith DRG Uploader
    Uploader

    Joined:
    Aug 26, 2016
    Messages:
    65
    Likes Received:
    3
    Uploaded:
    302.3 GB
    Downloaded:
    24.1 GB
    Ratio:
    12.53
    [​IMG]
    Title: M.S. Dhoni: The Untold Story (2016)

    Tagline: The man you know... The journey you don't.

    Genre: Drama

    Director: Neeraj Pandey

    Cast: Sushant Singh Rajput, Disha Patani, Bhumika Chawla, Kiara Advani, Anupam Kher, Rajesh Sharma, Kumud Mishra, Brijendra Kala, Mukesh Bhatt, Kali Prasad Mukherjee, Rajendra Chawla, Herry Tangiri

    Release Date:

    Runtime: 190

    Plot: The film is based on the life of Indian cricketer and the current captain of the Indian national cricket team, Mahendra Singh Dhoni.




    General
    Format : Matroska
    Format version : Version 4 / Version 2
    File size : 3.89 GiB
    Duration : 3 h 4 min
    Overall bit rate : 3 016 kb/s

    Video
    ID : 1
    Format : AVC
    Format/Info : Advanced Video Codec
    Format profile : [email protected]
    Format settings, CABAC : Yes
    Format settings, ReFrames : 4 frames
    Codec ID : V_MPEG4/ISO/AVC
    Duration : 3 h 4 min
    Bit rate : 2 375 kb/s
    Width : 1 912 pixels
    Height : 800 pixels
    Display aspect ratio : 2.40:1
    Frame rate mode : Constant
    Frame rate : 24.000 FPS
    Color space : YUV
    Chroma subsampling : 4:2:0
    Bit depth : 8 bits
    Scan type : Progressive
    Bits/(Pixel*Frame) : 0.065
    Stream size : 3.06 GiB (79%)
    Writing library : x264 core 148 r2638 7599210
    Language : Tamil
    Default : Yes
    Forced : No

    Audio
    ID : 2
    Format : AC-3
    Format/Info : Audio Coding 3
    Mode extension : CM (complete main)
    Format settings, Endianness : Big
    Codec ID : A_AC3
    Duration : 3 h 4 min
    Bit rate mode : Constant
    Bit rate : 640 kb/s
    Channel(s) : 6 channels
    Channel positions : Front: L C R, Side: L R, LFE
    Sampling rate : 48.0 kHz
    Frame rate : 31.250 FPS (1536 spf)
    Compression mode : Lossy
    Stream size : 845 MiB (21%)
    Language : Tamil
    Default : Yes
    Forced : No

    Text
    ID : 3
    Format : UTF-8
    Codec ID : S_TEXT/UTF8
    Codec ID/Info : UTF-8 Plain Text
    Duration : 2 h 56 min
    Bit rate : 56 b/s
    Count of elements : 2459
    Stream size : 73.1 KiB (0%)
    Language : English
    Default : Yes
    Forced : No

    [​IMG] [​IMG] [​IMG] [​IMG]
     
    M.S. Dhoni (2016) Tamil BR-Rip - 1080p - x264 - DD5.1 (640Kbps) - 3.9GB - ESub TEAM DRG.torrent
    (19.8 KB, 6 Views, Size: 3.9 GB, Seeders: 1, Leechers: 0, completed: 1) Freeleech
    • Created With:
      uTorrent/3.4.9
      Comment:
      No comment for this torrent
      Peers:
      1 seeders + 0 leechers = 1 peers
      Last Announce:
      Jan 18, 2017 at 9:39 AM
    • Loading...
    #1 Abhijith DRG, Dec 28, 2016
    Last edited by a moderator: Jan 14, 2017 at 4:22 PM
  2. Anish Antony

    Anish Antony New Member

    Joined:
    Jul 26, 2016
    Messages:
    24
    Likes Received:
    0
    Uploaded:
    3.5 GB
    Downloaded:
    13.7 GB
    Ratio:
    0.26
    Thanks for your help
     
  3. neelz

    neelz New Member

    Joined:
    Oct 9, 2016
    Messages:
    15
    Likes Received:
    0
    Uploaded:
    6.2 GB
    Downloaded:
    16.6 GB
    Ratio:
    0.37
    Thanks for the moview
     
  4. ponnarasu

    ponnarasu New Member

    Joined:
    Jan 6, 2017
    Messages:
    10
    Likes Received:
    0
    Uploaded:
    2 GB
    Downloaded:
    878.7 MB
    Ratio:
    2.33
    wow......................
     

Share This Page

Movie information in first post provided by The Movie Database