1. BONUS SYSTEM: USE OUR BONUS SYSTEM TO BUY UPLOAD CREDIT. SEED YOUR TORRENTS AS LONG AS POSSIBLE AND GET BONUS POINTS

    Dismiss Notice
  2. REFERAL CONTEST: USE OUR REFERAL SYSTEM Refer and win Bonus points and get upload credit. 1. Get 500 Bonus point and get 2 GB upload credit. 2. Get 250 Bonus point and get 1 GB upload credit. 3. Get 100 Bonus point and get 500 mb upload credit.

    Dismiss Notice

Kuttrame Thandanai (2016) [720p Dvdrip - Dd 5.1 (untouched) - X264 - 1.4gb - Tamil]

Discussion in 'TAMIL DVD RIPS' started by Poisonrock, Sep 28, 2016.

  1. Poisonrock

    Poisonrock Uploader
    Uploader

    Joined:
    May 28, 2016
    Messages:
    111
    Likes Received:
    35
    Uploaded:
    5.3 TB
    Downloaded:
    1.4 TB
    Ratio:
    3.73
    [​IMG]
    Code:
    Complete name               : Kuttrame Thandanai (2016) [720p DVDRip - DD 5.1 (Untouched) - x264 - 1.4GB - Tamil].mkv
    Format                      : Matroska
    Format version              : Version 4 / Version 2
    File size                   : 1.49 GiB
    Duration                    : 1h 32mn
    Overall bit rate            : 2 309 Kbps
    Movie name                  : Kuttrame Thandanai (2016) By Poisonrock @ Team DRG
    Encoded date                : UTC 2016-09-28 01:28:19
    Writing application         : mkvmerge v9.3.1 ('Mask Machine') 32bit
    Writing library             : libebml v1.3.4 + libmatroska v1.4.5
    
    Video
    ID                          : 1
    Format                      : AVC
    Format/Info                 : Advanced Video Codec
    Format profile              : [email protected]
    Format settings, CABAC      : Yes
    Format settings, ReFrames   : 4 frames
    Codec ID                    : V_MPEG4/ISO/AVC
    Duration                    : 1h 32mn
    Bit rate                    : 2 052 Kbps
    Width                       : 1 280 pixels
    Height                      : 704 pixels
    Display aspect ratio        : 16:9
    Frame rate mode             : Constant
    Frame rate                  : 25.000 fps
    Color space                 : YUV
    Chroma subsampling          : 4:2:0
    Bit depth                   : 8 bits
    Scan type                   : Progressive
    Bits/(Pixel*Frame)          : 0.091
    Stream size                 : 1.32 GiB (89%)
    Title                       : Poisonrock @ Team DRG
    Writing library             : x264 core 148 r2638 7599210
    Encoding settings           : cabac=1 / ref=3 / deblock=1:0:0 / analyse=0x3:0x113 / me=hex / subme=7 / psy=1 / psy_rd=1.00:0.00 / mixed_ref=1 / me_range=16 / chroma_me=1 / trellis=1 / 8x8dct=1 / cqm=0 / deadzone=21,11 / fast_pskip=1 / chroma_qp_offset=-2 / threads=12 / lookahead_threads=2 / sliced_threads=0 / nr=0 / decimate=1 / interlaced=0 / bluray_compat=0 / constrained_intra=0 / bframes=3 / b_pyramid=2 / b_adapt=1 / b_bias=0 / direct=1 / weightb=1 / open_gop=0 / weightp=2 / keyint=250 / keyint_min=25 / scenecut=40 / intra_refresh=0 / rc_lookahead=40 / rc=2pass / mbtree=1 / bitrate=2052 / ratetol=1.0 / qcomp=0.60 / qpmin=0 / qpmax=69 / qpstep=4 / cplxblur=20.0 / qblur=0.5 / ip_ratio=1.40 / aq=1:1.00
    Language                    : English
    Default                     : Yes
    Forced                      : Yes
    
    Audio
    ID                          : 2
    Format                      : AC-3
    Format/Info                 : Audio Coding 3
    Mode extension              : CM (complete main)
    Format settings, Endianness : Big
    Codec ID                    : A_AC3
    Duration                    : 1h 32mn
    Bit rate mode               : Constant
    Bit rate                    : 256 Kbps
    Channel(s)                  : 6 channels
    Channel positions           : Front: L C R, Side: L R, LFE
    Sampling rate               : 48.0 KHz
    Frame rate                  : 31.250 fps (1536 spf)
    Compression mode            : Lossy
    Stream size                 : 169 MiB (11%)
    Title                       : Poisonrock @ Team DRG
    Language                    : Tamil
    Default                     : Yes
    Forced                      : Yes
    
    
    [​IMG]
     
    Kuttrame Thandanai (2016) [720p DVDRip - DD 5.1 (Untouched) - x264 - 1.4GB - Tamil].torrent
    (30.3 KB, 21 Views, Size: 1.5 GB, Seeders: 1, Leechers: 0, completed: 3)
    • Created With:
      ruTorrent (PHP Class - Adrien Gibrat)
      Comment:
      Poisonrock @ Team DRG
      Peers:
      1 seeders + 0 leechers = 1 peers
      Last Announce:
      Jan 16, 2017 at 10:33 AM
    • Loading...
  2. Casanova Karthik

    Joined:
    Aug 17, 2016
    Messages:
    43
    Likes Received:
    0
    Uploaded:
    3.4 GB
    Downloaded:
    13.4 GB
    Ratio:
    0.26
  3. Casanova Karthik

    Joined:
    Aug 17, 2016
    Messages:
    43
    Likes Received:
    0
    Uploaded:
    3.4 GB
    Downloaded:
    13.4 GB
    Ratio:
    0.26
    #Stuck at 1.03 GB.... !!! no peers... no seeders...
     
  4. mobileasisst

    mobileasisst New Member

    Joined:
    Sep 24, 2016
    Messages:
    14
    Likes Received:
    0
    Uploaded:
    12.9 GB
    Downloaded:
    10.2 GB
    Ratio:
    1.26
    thanks a lot for the movie...
     
  5. Poisonrock

    Poisonrock Uploader
    Uploader

    Joined:
    May 28, 2016
    Messages:
    111
    Likes Received:
    35
    Uploaded:
    5.3 TB
    Downloaded:
    1.4 TB
    Ratio:
    3.73
    @Casanova Karthik brother check your connection, The film is seeding in high speed :frown:
     
  6. Samwise

    Samwise Member

    Joined:
    Sep 13, 2016
    Messages:
    46
    Likes Received:
    0
    Uploaded:
    1.4 TB
    Downloaded:
    21 GB
    Ratio:
    67.39
    Thank you for the download
     
  7. anilraju

    anilraju Member

    Joined:
    Sep 26, 2016
    Messages:
    30
    Likes Received:
    0
    Uploaded:
    1.3 GB
    Downloaded:
    7 GB
    Ratio:
    0.19
    aaaaaaaadipoliiiiii
     
  8. satishfunky

    satishfunky New Member

    Joined:
    Oct 9, 2016
    Messages:
    12
    Likes Received:
    0
    Uploaded:
    1.4 GB
    Downloaded:
    7.4 GB
    Ratio:
    0.18
    thank u, awesome
     
  9. Jamher

    Jamher New Member

    Joined:
    Oct 24, 2016
    Messages:
    4
    Likes Received:
    0
    Uploaded:
    1.1 GB
    Downloaded:
    3.2 GB
    Ratio:
    0.36
    Thank you very much for the upload
     

Share This Page