1. AVATAR CONTEST: Check out https://www.desireleasers.com/threads/avatar-contest.1226/

    Dismiss Notice
  2. BONUS SYSTEM: USE OUR BONUS SYSTEM TO BUY UPLOAD CREDIT. SEED YOUR TORRENTS AS LONG AS POSSIBLE AND GET BONUS POINTS

    Dismiss Notice
  1. MBRHDRG

    MBRHDRG Desi Uploader
    Desi Uploader

    Joined:
    May 20, 2016
    Messages:
    298
    Likes Received:
    486
    Uploaded:
    14 TB
    Downloaded:
    471.5 GB
    Ratio:
    30.35
    [​IMG]
    Title: Kodi (2016)

    Genre: Romance, Action, Drama

    Director: R. S. Durai Senthilkumar

    Cast: Dhanush, Trisha Krishnan, Anupama Parameswaran, Saranya Ponvannan, G. Marimuthu, Kaali Venkat, Raja Simman, S. A. Chandrasekhar, Vijayakumar, Namo Narayanan, Karunas, Swaminathan, Anil Murali, Raj Kapoor

    Release Date:

    Runtime: 145

    Plot: A young politician finds himself in a position where he has to contest against his girlfriend, who is ambitious. Circumstances force his look-alike twin to also get involved in this political battle.


    Format : Matroska
    Format version : Version 2
    File size : 2.00 GiB
    Duration : 2 h 19 min
    Overall bit rate : 2 054 kb/s
    Video
    ID : 1
    Format : AVC
    Format/Info : Advanced Video Codec
    Format profile : [email protected]
    Format settings, CABAC : Yes
    Format settings, ReFrames : 4 frames
    Codec ID : V_MPEG4/ISO/AVC
    Duration : 2 h 18 min
    Bit rate : 1 805 kb/s
    Width : 1 920 pixels
    Height : 816 pixels
    Display aspect ratio : 2.35:1
    Frame rate mode : Constant
    Frame rate : 24.000 FPS
    Color space : YUV
    Chroma subsampling : 4:2:0
    Bit depth : 8 bits
    Scan type : Progressive
    Bits/(Pixel*Frame) : 0.048
    Stream size : 1.75 GiB (87%)
    Audio
    ID : 2
    Format : AAC
    Format/Info : Advanced Audio Codec
    Format profile : LC
    Codec ID : A_AAC
    Duration : 2 h 18 min
    Bit rate : 256 kb/s
    Channel(s) : 6 channels
    Channel positions : Front: L C R, Side: L R, LFE
    Sampling rate : 48.0 kHz
    Frame rate : 46.875 FPS (1024 spf)
    Compression mode : Lossy
    Delay relative to video : 9 ms
    Stream size : 253 MiB (12%)
    Title : MBRHDRG
    Language : Tamil
    Default : Yes
    Forced : No

    [​IMG]

    [​IMG]

    [​IMG]

    [​IMG]

    [​IMG]
     
    Kodi (2016) Tamil WebRip 1080p x264 AAC 5.1 E-Sub-MBRHDRG.torrent
    (160.1 KB, 76 Views, Size: 2 GB, Seeders: 3, Leechers: 0, completed: 32) Freeleech
    • Created With:
      ruTorrent (PHP Class - Adrien Gibrat)
      Comment:
      No comment for this torrent
      Peers:
      3 seeders + 0 leechers = 3 peers
      Last Announce:
      Jun 26, 2017 at 4:35 PM
    • Loading...
  2. Sidha

    Sidha Member

    Joined:
    Sep 30, 2016
    Messages:
    42
    Likes Received:
    1
    Uploaded:
    9.4 GB
    Downloaded:
    40.4 GB
    Ratio:
    0.23
    Thanks brooooiii! Happy Christmas.
     
  3. ragithkumar653

    ragithkumar653 New Member

    Joined:
    Dec 8, 2016
    Messages:
    15
    Likes Received:
    1
    Uploaded:
    2.1 GB
    Downloaded:
    5.3 GB
    Ratio:
    0.39
    thankz 4 share
     
  4. Krishna-Appu

    Krishna-Appu Member

    Joined:
    Jul 23, 2016
    Messages:
    126
    Likes Received:
    2
    Uploaded:
    25 GB
    Downloaded:
    88 GB
    Ratio:
    0.28
    Thanks for the share.
     
  5. Shaikhere

    Shaikhere Well-Known Member

    Joined:
    May 27, 2016
    Messages:
    62
    Likes Received:
    1
    Uploaded:
    41.8 GB
    Downloaded:
    28.5 GB
    Ratio:
    1.46
    Wish u nd whole Desi releasers friends merry xmas...

    Plz achcham embathu...
     
  6. cyberinx

    cyberinx VIP
    PREMIUM MEMBER

    Joined:
    Aug 19, 2016
    Messages:
    72
    Likes Received:
    0
    Uploaded:
    12.4 GB
    Downloaded:
    35.2 GB
    Ratio:
    0.35
    Thanks for the share.
     
  7. Shijith

    Shijith Active Member

    Joined:
    Jul 22, 2016
    Messages:
    113
    Likes Received:
    7
    Uploaded:
    1.7 TB
    Downloaded:
    39.4 GB
    Ratio:
    43.21
    Thanks mbrhdrg
     
  8. Sriram BS

    Sriram BS Guest

    Thanks for the upload. Happy Christmas.
     
  9. Anoob

    Anoob Member

    Joined:
    Jul 26, 2016
    Messages:
    71
    Likes Received:
    0
    Uploaded:
    40.5 GB
    Downloaded:
    28.9 GB
    Ratio:
    1.40
    thanks for the share...
     
  10. Roshan Raj

    Roshan Raj Member

    Joined:
    Oct 9, 2016
    Messages:
    70
    Likes Received:
    0
    Uploaded:
    11.4 GB
    Downloaded:
    45.9 GB
    Ratio:
    0.25
    hope this is a nice movie...
     
  11. mobileasisst

    mobileasisst Member

    Joined:
    Sep 24, 2016
    Messages:
    29
    Likes Received:
    1
    Uploaded:
    24.5 GB
    Downloaded:
    22.9 GB
    Ratio:
    1.07
    thanks a lot for kodi
     
  12. Aghosh mathew

    Aghosh mathew Member

    Joined:
    Oct 19, 2016
    Messages:
    54
    Likes Received:
    1
    Uploaded:
    6.8 GB
    Downloaded:
    23.8 GB
    Ratio:
    0.29
    thanks good quality
     
  13. x264

    x264 Member

    Joined:
    Sep 26, 2016
    Messages:
    164
    Likes Received:
    2
    Uploaded:
    177.4 GB
    Downloaded:
    142.4 GB
    Ratio:
    1.25
    thanks..........
     
  14. crazyuser10

    crazyuser10 Member

    Joined:
    Jul 25, 2016
    Messages:
    68
    Likes Received:
    0
    Uploaded:
    9.2 GB
    Downloaded:
    28.7 GB
    Ratio:
    0.32
    thanks good quality..........
     
  15. anilraju

    anilraju Member

    Joined:
    Sep 26, 2016
    Messages:
    30
    Likes Received:
    0
    Uploaded:
    1.3 GB
    Downloaded:
    7 GB
    Ratio:
    0.19
    thankssssssss 4 share
     
  16. Indrajit K

    Indrajit K Member

    Joined:
    Nov 13, 2016
    Messages:
    47
    Likes Received:
    1
    Uploaded:
    2 GB
    Downloaded:
    11.1 GB
    Ratio:
    0.18
    thanx 4 the upload...
     
  17. pk123

    pk123 Member

    Joined:
    Jul 18, 2016
    Messages:
    49
    Likes Received:
    0
    Uploaded:
    87.8 GB
    Downloaded:
    43.2 GB
    Ratio:
    2.03
    thanks a lot ..
     

Share This Page

Movie information in first post provided by The Movie Database