1. BONUS SYSTEM: USE OUR BONUS SYSTEM TO BUY UPLOAD CREDIT. SEED YOUR TORRENTS AS LONG AS POSSIBLE AND GET BONUS POINTS

    Dismiss Notice
  2. REFERAL CONTEST: USE OUR REFERAL SYSTEM Refer and win Bonus points and get upload credit. 1. Get 500 Bonus point and get 2 GB upload credit. 2. Get 250 Bonus point and get 1 GB upload credit. 3. Get 100 Bonus point and get 500 mb upload credit.

    Dismiss Notice
  1. MBRHDRG

    MBRHDRG Desi Uploader
    Desi Uploader

    Joined:
    May 20, 2016
    Messages:
    195
    Likes Received:
    481
    Uploaded:
    9.2 TB
    Downloaded:
    100.5 GB
    Ratio:
    93.43
    [​IMG]
    Title: Kavalai Vendam (2016)

    Genre: Comedy, Drama, Romance

    Director: Deekay

    Cast: Jiiva, Kajal Agarwal, Bobby Simha, Sunaina, Mayilsamy, Karunakaran, Sruthi Ramakrishna, Swetha, Balaji Patturaj, Balasaravanan, Raasi

    Release Date:

    Runtime: 137

    Plot: A chef who is separated from his wife decides to win back her love after she lands up at his doorstep asking for divorce.


    Format : Matroska
    Format version : Version 2
    File size : 2.00 GiB
    Duration : 2 h 16 min
    Overall bit rate : 2 094 kb/s
    Video
    ID : 1
    Format : AVC
    Format/Info : Advanced Video Codec
    Format profile : [email protected]
    Format settings, CABAC : Yes
    Format settings, ReFrames : 4 frames
    Codec ID : V_MPEG4/ISO/AVC
    Duration : 2 h 16 min
    Bit rate : 1 837 kb/s
    Width : 1 920 pixels
    Height : 816 pixels
    Display aspect ratio : 2.35:1
    Frame rate mode : Constant
    Frame rate : 24.000 FPS
    Color space : YUV
    Chroma subsampling : 4:2:0
    Bit depth : 8 bits
    Scan type : Progressive
    Bits/(Pixel*Frame) : 0.049
    Stream size : 1.75 GiB (88%)
    Audio
    ID : 2
    Format : AAC
    Format/Info : Advanced Audio Codec
    Format profile : LC
    Codec ID : A_AAC
    Duration : 2 h 16 min
    Bit rate : 256 kb/s
    Channel(s) : 6 channels
    Channel positions : Front: L C R, Side: L R, LFE
    Sampling rate : 48.0 kHz
    Frame rate : 46.875 FPS (1024 spf)
    Compression mode : Lossy
    Delay relative to video : 9 ms
    Stream size : 249 MiB (12%)
    Title : MBRHDRG
    Language : Tamil
    Default : Yes
    Forced : No
    [​IMG]

    [​IMG]

    [​IMG]

    [​IMG]

    [​IMG]
     
    Kavalai Vendam (2016) Tamil WebRip 1080p x264 AAC 5.1 E-Sub-MBRHDRG.torrent
    (160.2 KB, 27 Views, Size: 2 GB, Seeders: 1, Leechers: 0, completed: 7)
    • Created With:
      ruTorrent (PHP Class - Adrien Gibrat)
      Comment:
      No comment for this torrent
      Peers:
      1 seeders + 0 leechers = 1 peers
      Last Announce:
      Jan 16, 2017 at 10:37 AM
    • Loading...
  2. jjj

    jjj New Member

    Joined:
    Oct 3, 2016
    Messages:
    13
    Likes Received:
    0
    Uploaded:
    1 GB
    Downloaded:
    406.2 MB
    Ratio:
    2.52
    thankssssssssssssssss
     
  3. Shijith

    Shijith Member

    Joined:
    Jul 22, 2016
    Messages:
    68
    Likes Received:
    6
    Uploaded:
    138.3 GB
    Downloaded:
    32.2 GB
    Ratio:
    4.29
    Thanks mbrhdrg
     
  4. ragithkumar653

    ragithkumar653 New Member

    Joined:
    Dec 8, 2016
    Messages:
    15
    Likes Received:
    1
    Uploaded:
    2.1 GB
    Downloaded:
    5.3 GB
    Ratio:
    0.39
    Thank you mbrhdrg
     
  5. Krishna-Appu

    Krishna-Appu Member

    Joined:
    Jul 23, 2016
    Messages:
    66
    Likes Received:
    2
    Uploaded:
    14.4 GB
    Downloaded:
    58.8 GB
    Ratio:
    0.24
    Thanks for the share.
     
  6. Roshan Raj

    Roshan Raj Member

    Joined:
    Oct 9, 2016
    Messages:
    35
    Likes Received:
    0
    Uploaded:
    5.6 GB
    Downloaded:
    19.9 GB
    Ratio:
    0.28
    happy x mas man...
     
  7. x264

    x264 Member

    Joined:
    Sep 26, 2016
    Messages:
    96
    Likes Received:
    1
    Uploaded:
    71.1 GB
    Downloaded:
    89.5 GB
    Ratio:
    0.79
    thank you...
     
  8. vjv

    vjv Member

    Joined:
    Jul 23, 2016
    Messages:
    125
    Likes Received:
    0
    Uploaded:
    245.1 GB
    Downloaded:
    49 GB
    Ratio:
    5.00
    thanks for the release
     
  9. Sallap K

    Sallap K New Member

    Joined:
    Dec 7, 2016
    Messages:
    16
    Likes Received:
    1
    Uploaded:
    2 GB
    Downloaded:
    8.1 GB
    Ratio:
    0.25
    Thnx For The Share
     
  10. Sriram BS

    Sriram BS New Member

    Joined:
    Sep 25, 2016
    Messages:
    17
    Likes Received:
    1
    Uploaded:
    1.6 GB
    Downloaded:
    3.3 GB
    Ratio:
    0.50
    Thanks for the upload
     
  11. krishnadas

    krishnadas New Member

    Joined:
    Nov 13, 2016
    Messages:
    5
    Likes Received:
    0
    Uploaded:
    2 GB
    Downloaded:
    3.2 GB
    Ratio:
    0.63
    Thank you very much da
     
  12. saify

    saify New Member

    Joined:
    Nov 18, 2016
    Messages:
    9
    Likes Received:
    0
    Uploaded:
    2.1 GB
    Downloaded:
    3.7 GB
    Ratio:
    0.56
    Thanks mbrhdrg
     
  13. Naga S

    Naga S New Member

    Joined:
    Jan 9, 2017
    Messages:
    1
    Likes Received:
    0
    Uploaded:
    2 GB
    Downloaded:
    976.6 MB
    Ratio:
    2.10
    thank u so much...........
     
  14. AllvinJames

    AllvinJames New Member

    Joined:
    Oct 29, 2016
    Messages:
    13
    Likes Received:
    0
    Uploaded:
    2.1 GB
    Downloaded:
    7.6 GB
    Ratio:
    0.28

Share This Page

Movie information in first post provided by The Movie Database