1. BONUS SYSTEM: USE OUR BONUS SYSTEM TO BUY UPLOAD CREDIT. SEED YOUR TORRENTS AS LONG AS POSSIBLE AND GET BONUS POINTS

    Dismiss Notice
  2. REFERAL CONTEST: USE OUR REFERAL SYSTEM Refer and win Bonus points and get upload credit. 1. Get 500 Bonus point and get 2 GB upload credit. 2. Get 250 Bonus point and get 1 GB upload credit. 3. Get 100 Bonus point and get 500 mb upload credit.

    Dismiss Notice
  1. MBRHDRG

    MBRHDRG Desi Uploader
    Desi Uploader

    Joined:
    May 20, 2016
    Messages:
    196
    Likes Received:
    481
    Uploaded:
    9.2 TB
    Downloaded:
    100.5 GB
    Ratio:
    93.88
    [​IMG]
    Title: Ae Dil Hai Mushkil (2016)

    Genre: Drama, Romance

    Director: Karan Johar

    Cast: Aishwarya Rai Bachchan, Ranbir Kapoor, Anushka Sharma, Fawad Afzal Khan, Imran Abbas Naqvi, Lisa Haydon, Shah Rukh Khan, Raj Awasti, Lora Moss, Matt Townsend

    Release Date:

    Runtime: 158

    Plot: Ayan falls in love with his soulmate, Alizeh, but she doesn’t reciprocate the feeling. Later, a relationship with Saba helps him realize Alizeh’s value in his life, irrespective of their relationship status.


    Format : Matroska
    Format version : Version 2
    File size : 1.99 GiB
    Duration : 2 h 36 min
    Overall bit rate : 1 819 kb/s
    Video
    ID : 1
    Format : AVC
    Format/Info : Advanced Video Codec
    Format profile : [email protected]
    Format settings, CABAC : Yes
    Format settings, ReFrames : 4 frames
    Codec ID : V_MPEG4/ISO/AVC
    Duration : 2 h 36 min
    Bit rate : 1 562 kb/s
    Width : 1 920 pixels
    Height : 800 pixels
    Display aspect ratio : 2.40:1
    Frame rate mode : Constant
    Frame rate : 24.000 FPS
    Color space : YUV
    Chroma subsampling : 4:2:0
    Bit depth : 8 bits
    Scan type : Progressive
    Bits/(Pixel*Frame) : 0.042
    Stream size : 1.71 GiB (86%)
    Audio
    ID : 2
    Format : AAC
    Format/Info : Advanced Audio Codec
    Format profile : LC
    Codec ID : A_AAC
    Duration : 2 h 36 min
    Bit rate : 256 kb/s
    Channel(s) : 6 channels
    Channel positions : Front: L C R, Side: L R, LFE
    Sampling rate : 48.0 kHz
    Frame rate : 46.875 FPS (1024 spf)
    Compression mode : Lossy
    Delay relative to video : 9 ms
    Stream size : 287 MiB (14%)
    Title : MBRHDRG
    Language : Hindi
    Default : Yes
    Forced : No
    [​IMG]
    [​IMG]
    [​IMG]
    [​IMG]
    [​IMG]
    [​IMG]
     
    Ae Dil Hai Mushkil (2016) Hindi BRRip 1080p x264 AAC E-Sub-MBRHDRG.torrent
    (160.1 KB, 22 Views, Size: 2 GB, Seeders: 1, Leechers: 0, completed: 7) Freeleech
    • Created With:
      ruTorrent (PHP Class - Adrien Gibrat)
      Comment:
      No comment for this torrent
      Peers:
      1 seeders + 0 leechers = 1 peers
      Last Announce:
      Jan 18, 2017 at 9:32 AM
    • Loading...
  2. Abhijith DRG

    Abhijith DRG Uploader
    Uploader

    Joined:
    Aug 26, 2016
    Messages:
    65
    Likes Received:
    3
    Uploaded:
    302.3 GB
    Downloaded:
    24.1 GB
    Ratio:
    12.53
    THANKS HOMIE
     
  3. ragithkumar653

    ragithkumar653 New Member

    Joined:
    Dec 8, 2016
    Messages:
    15
    Likes Received:
    1
    Uploaded:
    2.1 GB
    Downloaded:
    5.3 GB
    Ratio:
    0.39
    thank you for share
     
  4. nmsptpm

    nmsptpm Guest

    tnx for the upload..............
     
  5. x264

    x264 Member

    Joined:
    Sep 26, 2016
    Messages:
    98
    Likes Received:
    1
    Uploaded:
    72.1 GB
    Downloaded:
    89.5 GB
    Ratio:
    0.81
    thank you.........
     
  6. vjv

    vjv Member

    Joined:
    Jul 23, 2016
    Messages:
    127
    Likes Received:
    0
    Uploaded:
    246.4 GB
    Downloaded:
    49 GB
    Ratio:
    5.03
    thank you for the release
     
  7. prasu

    prasu New Member

    Joined:
    Aug 14, 2016
    Messages:
    29
    Likes Received:
    0
    Uploaded:
    1.1 GB
    Downloaded:
    6.2 GB
    Ratio:
    0.19
    thanks and waiting for ms dhoni
     
  8. Unnikrishnan

    Unnikrishnan New Member

    Joined:
    Dec 27, 2016
    Messages:
    1
    Likes Received:
    0
    Uploaded:
    2 GB
    Downloaded:
    0 bytes
    Ratio:
    -
    Thanks a lot
     
  9. Sriram BS

    Sriram BS New Member

    Joined:
    Sep 25, 2016
    Messages:
    17
    Likes Received:
    1
    Uploaded:
    1.6 GB
    Downloaded:
    3.3 GB
    Ratio:
    0.50
    Thanks for the upload. Happy new year.
     
  10. agonist indian

    Joined:
    Aug 13, 2016
    Messages:
    79
    Likes Received:
    1
    Uploaded:
    15.3 GB
    Downloaded:
    14.8 GB
    Ratio:
    1.03
    thank you for the movie
     
  11. Shraban

    Shraban New Member

    Joined:
    Jan 1, 2017
    Messages:
    4
    Likes Received:
    0
    Uploaded:
    2.2 GB
    Downloaded:
    14.2 GB
    Ratio:
    0.16
    Thank you very much
     
  12. sathish

    sathish New Member

    Joined:
    Jan 4, 2017
    Messages:
    8
    Likes Received:
    0
    Uploaded:
    2 GB
    Downloaded:
    0 bytes
    Ratio:
    -
    thanks................................................................................................
     
  13. Sumesh

    Sumesh Member

    Joined:
    Sep 6, 2016
    Messages:
    64
    Likes Received:
    1
    Uploaded:
    2.6 GB
    Downloaded:
    6.6 GB
    Ratio:
    0.39
    Thkssss mbrhdrg
     
  14. agonist indian

    Joined:
    Aug 13, 2016
    Messages:
    79
    Likes Received:
    1
    Uploaded:
    15.3 GB
    Downloaded:
    14.8 GB
    Ratio:
    1.03
    thanks for the movie
     
  15. NithinMS

    NithinMS New Member

    Joined:
    Jan 4, 2017
    Messages:
    20
    Likes Received:
    1
    Uploaded:
    2.2 GB
    Downloaded:
    2.4 GB
    Ratio:
    0.93
    Tnx............
     
  16. sajid hussain

    sajid hussain Member

    Joined:
    Jul 26, 2016
    Messages:
    145
    Likes Received:
    0
    Uploaded:
    31.5 GB
    Downloaded:
    38.5 GB
    Ratio:
    0.82
    Thanks MBRHDRG
     
  17. Shaikhere

    Shaikhere Well-Known Member

    Joined:
    May 27, 2016
    Messages:
    31
    Likes Received:
    0
    Uploaded:
    12.9 GB
    Downloaded:
    12.7 GB
    Ratio:
    1.02
    Such a Lovely story. Bro can you upload full hd Videos music packs? Its an humble request if you can.
     

Share This Page

Movie information in first post provided by The Movie Database